Скачать через торрент Шесть Six Фильм бесплатно в хорошем качестве torrent

Скачивайте на UnionPeer.org фильмы через торрент без регистрации. Новинки кино в хорошем качестве через торрент. На UnionPeer.org можно скачать через торрент фильмы 2014 и 2015 годов. Самые новые фильмы.

Скачать торрент Шесть Six бесплатно через .torrent фильм мультфильм сериал

Статистика раздачи
Размер:  4.69 GB   |    Зарегистрирован:  4 месяца 14 дней   |    .torrent скачан:  179 раз   |   
Раздают:  1  
   
загрузка...
 
Автор Сообщение

Galfimbul

avatar Galfimbul


Шесть / Six


Год выпуска: 2018
Страна: США
Жанр: боевик, драма, военный, история

Продолжительность: 00:45:21
Перевод:

Профессиональный многоголосый закадровый KANSAI
Режиссер: Микаэл Саломон, Кимберли Пирс, Питер Уэрнер
В ролях: Бэрри Слоун (Joe «Bear» Graves), Кайл Шмид (Alex Caulder), Хуан Пабло Раба (Ricky «Buddha» Ortiz), Эдвин Ходж (Robert Chase III), Брианна Дэвис (Lena Graves), Надин Веласкес (Jackie Ortiz), Джейлен Мур (Armin «Fishbait» Khan), Доминик Адамс (Michael Nasry), Джессика Гарза (Anabel Ortiz), Lindsley Register (Dharma Caulder), Joshua Gage (Ricky Ortiz, Jr.), Уолтон Гоггинс (Richard «Rip» Taggart)
Описание: Шестому отряду не удалось нагнать и ликвидировать одного из лидеров Талибана в Афганистане. Более того, во время миссии бойцы столкнулись с американцем, работавшим на террористов. Эта случайная встреча породила разлад в отряде, и его командир Ричард Таггарт ушел в отставку. В наши дни команда под руководством Джо Грейвза узнает, что в одной из африканских деревень террористы взяли в заложники учениц нигерийской школы для девочек. Но настоящим шоком становится то, что в плену оказался и их бывший командир Таггарт, который после уходя из своего подразделения подался к частным заказчикам. Если террористы узнают, кем он был в прошлом, то Ричарда ждет незавидная участь. И Шестой отряд берется за очередное невероятное сложное задание, чтобы спасти гражданских, вытащить бывшего командира и разрешить старые конфликты. Однако не только бойцы хотят хочет добраться до Рипа: «морского котика» уже опознали старые враги из Афганистана...


Ссылка на предыдущие и альтернативные раздачи

Качество: WEB-DL 1080p
Формат: MKV
Видео: AVC, 1920x1080 (16:9), 14083 kbps, 23,976 fps, 0,283 bpp
Аудио №1: русский / AC3 / 2.0 / 48 kHz / 192 kbps
Аудио №2: английский / E-AC3 / 2.0 / 48 kHz / 224 kbps
Субтитры: английские, английские (SDH)
Реклама: аудио, два раза в начале и в конце по 13 секунд
General
Unique ID : 199438157213228034241817914668514837953 (0x960A6453C1E5000EADA86BFC8BCC85C1)
Complete name : G:\0_kansai\tor\SIX.S02.1080p.WEBDL-KANSAI\SIX.S02E01.1080p.WEBDL-KANSAI.mkv
Format : Matroska
Format version : Version 4 / Version 2
File size : 4.69 GiB
Duration : 45 min
Overall bit rate : 14.8 Mb/s
Encoded date : UTC 2018-07-31 18:52:32
Writing application : mkvmerge v6.7.0 ('Back to the Ground') 64bit built on Jan 8 2014 15:10:52
Writing library : libebml v1.3.0 + libmatroska v1.4.1

Video
ID : 1
Format : AVC
Format/Info : Advanced Video Codec
Format profile : High@L4
Format settings, CABAC : Yes
Format settings, ReFrames : 4 frames
Codec ID : V_MPEG4/ISO/AVC
Duration : 45 min
Bit rate : 14.1 Mb/s
Width : 1 920 pixels
Height : 1 080 pixels
Display aspect ratio : 16:9
Frame rate mode : Constant
Frame rate : 23.976 (24000/1001) FPS
Color space : YUV
Chroma subsampling : 4:2:0
Bit depth : 8 bits
Scan type : Progressive
Bits/(Pixel*Frame) : 0.283
Stream size : 4.46 GiB (95%)
Default : Yes
Forced : No
Color range : Limited
Color primaries : BT.709
Transfer characteristics : BT.709
Matrix coefficients : BT.709

Audio #1
ID : 2
Format : AC-3
Format/Info : Audio Coding 3
Mode extension : CM (complete main)
Format settings, Endianness : Big
Codec ID : A_AC3
Duration : 45 min
Bit rate mode : Constant
Bit rate : 192 kb/s
Channel(s) : 2 channels
Channel positions : Front: L R
Sampling rate : 48.0 kHz
Frame rate : 31.250 FPS (1536 spf)
Compression mode : Lossy
Stream size : 62.3 MiB (1%)
Title : KANSAI Studio
Language : Russian
Default : Yes
Forced : No

Audio #2
ID : 3
Format : E-AC-3
Format/Info : Audio Coding 3
Format settings, Endianness : Big
Codec ID : A_EAC3
Duration : 45 min
Bit rate mode : Constant
Bit rate : 224 kb/s
Channel(s) : 2 channels
Channel positions : Front: L R
Sampling rate : 48.0 kHz
Frame rate : 187.500 FPS (256 spf)
Compression mode : Lossy
Stream size : 72.7 MiB (2%)
Language : English
Default : No
Forced : No

Text #1
ID : 4
Format : UTF-8
Codec ID : S_TEXT/UTF8
Codec ID/Info : UTF-8 Plain Text
Language : English
Default : No
Forced : No

Text #2
ID : 5
Format : UTF-8
Codec ID : S_TEXT/UTF8
Codec ID/Info : UTF-8 Plain Text
Title : SDH
Language : English
Default : No
Forced : No
Внимание! Раздача ведётся путём добавления новых серий; при каждом добавлении создаётся новый торрент. Чтобы начать докачку новой серии, пользователям необходимо сделать следующее:
(1) остановить скачивание,
(2) удалить старый торрент у себя из клиента (старые серии удалять не надо),
(3) скачать новый торрент и запустить его у себя в клиенте вместо старого, при этом указать клиенту путь в старую папку куда и должно происходить скачивание новых серий.
Ваш клиент при этом должен произвести хеширование (проверку) старой папки (если не производит сам - помогите ему сделать это), и будет докачивать только те серии которых у вас ещё нет. Старые серии при этом не удаляются, а продолжают раздаваться!
Eсли вы уже удалили старые серии, то предотвратить повторную закачку старых серий можно, отжав галочку в соответствующих местах при запуске нового торрента. По возможности, желательно не удалять старые серии как можно дольше чтобы релизёр не столько продолжал раздавать старые серии, а смог сконцентрироваться на новых.



Трекер:  [ 01-Авг-2018 23:48 ]

  

Скачать .torrent

Размер .torrent файла 47 KB


Размер: 4.69 GB
Хэш (hash) релиза: 0a1263714c2205752057fe1400ec283649c2a15f
Подписка на обновления:

Торренты, похожие на Шесть Six скачать торрент

Форум Название Автор Размер S L Добавлен
Зарубежные сериалы ·· Шестой отряд / Шесть / Six / Сезон: 2 / Серии: 1-2 из 10 (Лесли Линка Глаттер, Микаэл Саломон) [2018, США, Боевик, драма, военный, история, WEB-DLRip] DVO (Gears Media) + Original Galfimbul 11547188381.08 GB 0 0 1528006687

09:18

3-Июн-18

Зарубежные сериалы ·· Шестой отряд / Шесть / Six / Сезон: 2 / Серии: 1-3 из 10 (Лесли Линка Глаттер, Микаэл Саломон) [2018, США, Боевик, драма, военный, история, WEB-DL 720p] DVO (Gears Media) + Original Galfimbul 48980763744.56 GB 0 0 1528006699

09:18

3-Июн-18

Зарубежные сериалы ·· Шестой отряд / Шесть / Six / Сезон: 2 / Серия: 1-3 из 10 (Лесли Линка Глаттер, Микаэл Саломон) [2018, США, боевик, драма, военный, история, WEB-DL 720p] MVO (Jaskier) + Original + Sub Eng Galfimbul 46770338624.36 GB 0 0 1527956311

19:18

2-Июн-18

Зарубежные сериалы ·· Шестой отряд / Шесть / Six / Сезон: 2 / Серия: 1-3 из 10 (Лесли Линка Глаттер, Микаэл Саломон) [2018, США, боевик, драма, военный, история, WEB-DLRip] MVO (Jaskier) + Original Galfimbul 17306378241.61 GB 0 0 1527954491

18:48

2-Июн-18

Зарубежные сериалы ·· Шесть / Шестой отряд / Six / Сезон: 2 / Серии: 1-4 из 10 (Лесли Линка Глаттер, Микаэл Саломон) [2018, США, Боевик, драма, военный, история, WEB-DLRip] MVO (LostFilm) + Original Galfimbul 23077355522.15 GB 0 0 1529185688

00:48

17-Июн-18

Еще никто не оставлял запись к записи скачать торрент Шесть Six . Будь первым!

!Обратная связь