Скачать через торрент Шестой отряд Шесть Фильм бесплатно в хорошем качестве torrent

Скачивайте на UnionPeer.org фильмы через торрент без регистрации. Новинки кино в хорошем качестве через торрент. На UnionPeer.org можно скачать через торрент фильмы 2014 и 2015 годов. Самые новые фильмы.

Скачать торрент Шестой отряд Шесть бесплатно через .torrent фильм мультфильм сериал

Статистика раздачи
Размер:  1.08 GB   |    Зарегистрирован:  6 месяцев   |    .torrent скачан:  37 раз   |   
Раздают:  1  
   
загрузка...
 
Автор Сообщение

Galfimbul

avatar Galfimbul


Шестой отряд / Шесть / Six

Год выпуска: 2018
Страна: США
Жанр: Боевик, драма, военный, история
Продолжительность: 00:45:00

Перевод: Профессиональный (двухголосый закадровый) [Gears Media]

Режиссёр: Лесли Линка Глаттер, Микаэл Саломон
В ролях: Бэрри Слоун, Кайл Шмид, Хуан Пабло Раба, Эдвин Ходж, Брианна Дэвис, Надин Веласкес, Доминик Адамс, Уолтон Гоггинс, Джейлен Мур и др.

Описание: "Six" расскажет о буднях элитного подразделения «морских котиков» под названием «Шестой отряд». Лучшие из лучших, эти члены воинского братства принимали участие в самых сложных миссиях, включая физическое устранение лидера «Аль-Каиды» Усамы бен Ладена. Вдохновленный реальными операциями «Шестого отряда» сериал исследует характер и судьбу своих героев, которым по несколько раз на дню приходится решать вопросы жизни и смерти.

Сэмпл: http://multi-up.com/1200374

Качество: WEB-DLRip
Формат: AVI
Видео: XviD, 720x400 at 23.976 fps, ~1500 kbps avg
Аудио1: Russian, MP3, 48 kHz, 2 ch, 128 kbps
Аудио2: English, MP3, 48 kHz, 2 ch, 128 kbps
Субтитры: нет
Реклама: аудио (два раза, в начале и конце, по 12 сек.)
Format : AVI
Format/Info : Audio Video Interleave
File size : 568 MiB
Duration : 45 min 21 s
Overall bit rate : 1 752 kb/s
Writing application : Lavf56.30.100

Video
ID : 0
Format : xvid
Codec ID : xvid
Duration : 45 min 21 s
Bit rate : 1 475 kb/s
Width : 720 pixels
Height : 400 pixels
Display aspect ratio : 16:9
Frame rate : 23.976 (24000/1001) FPS
Scan type : Progressive
Bits/(Pixel*Frame) : 0.214
Stream size : 479 MiB (84%)

Audio #1
ID : 1
Format : MPEG Audio
Format version : Version 1
Format profile : Layer 3
Format settings : Joint stereo / MS Stereo
Codec ID : 55
Codec ID/Hint : MP3
Duration : 45 min 21 s
Bit rate mode : Constant
Bit rate : 128 kb/s
Channel(s) : 2 channels
Sampling rate : 48.0 kHz
Compression mode : Lossy
Stream size : 41.5 MiB (7%)
Alignment : Aligned on interleaves
Interleave, duration : 24 ms (0.58 video frame)
Interleave, preload duratio : 24 ms
Title : Gears Media
Writing library : LAME3.99.5ЄЄЄЄЄЄЄЄЄЄ

Audio #2
ID : 2
Format : MPEG Audio
Format version : Version 1
Format profile : Layer 3
Format settings : Joint stereo / MS Stereo
Codec ID : 55
Codec ID/Hint : MP3
Duration : 45 min 21 s
Bit rate mode : Constant
Bit rate : 128 kb/s
Channel(s) : 2 channels
Sampling rate : 48.0 kHz
Compression mode : Lossy
Stream size : 41.5 MiB (7%)
Alignment : Aligned on interleaves
Interleave, duration : 24 ms (0.58 video frame)
Interleave, preload duratio : 24 ms
Writing library : LAME3.99.5


Трекер:  [ 08-Июн-2018 11:22 ]

  

Скачать .torrent

Размер .torrent файла 11 KB


Размер: 1.08 GB
Хэш (hash) релиза: 74a839e076a782567293e870011d43ce925281bb
Подписка на обновления:

Торренты, похожие на Шестой отряд Шесть скачать торрент

Форум Название Автор Размер S L Добавлен
Зарубежные сериалы ·· Шестой отряд / Шесть / Six / Сезон: 2 / Серии: 1-3 из 10 (Лесли Линка Глаттер, Микаэл Саломон) [2018, США, Боевик, драма, военный, история, WEB-DL 720p] DVO (Gears Media) + Original Galfimbul 48980763744.56 GB 0 0 1528006699

09:18

3-Июн-18

Зарубежные сериалы ·· Шестой отряд / Шесть / Six / Сезон: 2 / Серия: 1-3 из 10 (Лесли Линка Глаттер, Микаэл Саломон) [2018, США, боевик, драма, военный, история, WEB-DL 720p] MVO (Jaskier) + Original + Sub Eng Galfimbul 46770338624.36 GB 0 0 1527956311

19:18

2-Июн-18

Зарубежные сериалы ·· Шестой отряд / Шесть / Six / Сезон: 2 / Серия: 1-3 из 10 (Лесли Линка Глаттер, Микаэл Саломон) [2018, США, боевик, драма, военный, история, WEB-DLRip] MVO (Jaskier) + Original Galfimbul 17306378241.61 GB 0 0 1527954491

18:48

2-Июн-18

Зарубежные сериалы ·· Шесть / Шестой отряд / Six / Сезон: 2 / Серии: 1-4 из 10 (Лесли Линка Глаттер, Микаэл Саломон) [2018, США, Боевик, драма, военный, история, WEB-DLRip] MVO (LostFilm) + Original Galfimbul 23077355522.15 GB 0 0 1529185688

00:48

17-Июн-18

bot

Раздача обновлена!
Перекачайте торрент-файл.

Хотите добавить комментарий к записи скачать торрент Шестой отряд Шесть

!Обратная связь